Home
Videos uploaded by user “Angelo0chek”
Консервный ключ ( нож ) Vinzer 89303 + открытие консервной банки
 
01:30
Прикупил себе консервный нож на пробу. Собственно, в видео показываю как открывает консервную банку. Под конец чуть остановился на месте - там почему-то плохо начало идти - нужно было приложить больше усилий. Режет довольно ровно. Острые края со стороны стенки банки - загибаются. Острые края со стороны крышки - остаются.
Views: 728 Angelo0chek
JDY IC99
 
04:31
Описание
Views: 378 Angelo0chek
Консервный нож Kamille 5067 + открытие консервной банки
 
01:44
Посмотрим, на сколько открытий хватит его.
Views: 136 Angelo0chek
21212121212
 
01:15
Views: 136 Angelo0chek
Far Cry 3 Приколы Глюки
 
00:58
Решил поохотиться на, как оказалось, тапиров, но эти самые животные подумали, что они умнее меня и решили найти убежище в воде. Но не тут то было, они то не знали, что плавать не умеют и вот в таком состоянии застопорились , охреневая со всего этого безобразия и с разработчиков игры. Вот такую лабуду увидел в новой игрухе:)
Views: 5801 Angelo0chek
MVI 7891
 
02:41
Views: 51 Angelo0chek
Tough Trucks: Modified Monsters / Монстры на колёсах
 
04:41
Скачать отсюда: http://kinozal.tv/details.php?id=1494917
Views: 1493 Angelo0chek
Ускорение интернета с помощью программы AVG LinkScanner
 
04:19
На тот момент у меня был тариф на 100 мегабит в обе стороны, но замечал, что на upload скорость не очень высока была. случайно, методом проб и ошибок выявил, что именно эта программа повышает в некоторых программах , где это возможно, скорость upload. Думаю, не всем поможет, но все же... Загрузить можно отсюда: http://free.avg.com/ru-ru/download-free-all-product Пока ссылка работает, может потом и что-то у них поменяется. Еще момент, после удаления этой программы, остаются следы в реестре, поэтому, лучше использовать после удаления этой программы AVG Remover : http://www.avg.com/us-en/utilities
Views: 3698 Angelo0chek
Bugbear Retro Demo 2002
 
02:24
Views: 170 Angelo0chek
VID 20180101 014841
 
03:22
Views: 62 Angelo0chek
Crysis2 глюк с новым кряком 1.9
 
01:15
играю себе и тут само включило 3d vision, на экране видно только оружие , а самой менюшки типа состояния здоровья - нет, пропало!
Views: 1989 Angelo0chek
DenuvoAntiDump
 
13:19
Views: 341 Angelo0chek
Запуск ExMachina на Windows XP 7 8 10
 
01:28
Файлы для запуска: http://rghost.ru/private/7zhqrQPGG/eaf8e9b115af07cb9439a4f6236225b8 Репаки ExMachina и ExMachina Meridian 113 ищите на ex.ua от labeanchik. Или можете скачать на торренте: ExMachina: https://goo.gl/gvMiYN ExMachina - Meridian 113: https://goo.gl/t8HEVp
Views: 3149 Angelo0chek
core i7 6700k @4.6 GHz HT = On + x264 + mirillis action! + sony vegas
 
04:33
Оригинальное видео: https://www.youtube.com/watch?v=2rthO04Lssc 4K Video Downloader: https://www.4kdownload.com/ru/download
Views: 568 Angelo0chek
Flat Out High Jump 400+
 
01:07
Views: 159 Angelo0chek
Watch Dogs GTX 760 Ultra
 
13:00
Видеокарта: Inno3d GeForce GTX 760 Процессор: Core i7 920 @4.0 GHz Оперативной памяти: 12 GB 1600 MHz Материнская плата: GA-EX58-UD4P Как видите, практически все настройки на ультра, кроме теней - они на высоком уровне. Притормаживания наблюдаются периодически и больше - во время дождя. Во время дождя и FPS падает, в районе 30 кадров\с. Но играбельно, довольно играбельно.
Views: 246 Angelo0chek
dirt 3 game.avi
 
03:21
На клавиатуре более-менее, можно управлять. Видеокарта: asus engtx 275 Процессор: Intel Core i7 920 @4.0GHz vcore 1.21 Озу: Kingston HyperX 1800 MHz @1600 8-8-8-20 v1.65 Блок питания: Corsair CMPSU-850HXEU Материнская плата: Gigabyte GA-EX58-UD4P (mod: http://www.xtremesystems.org/forums/showpost.php?p=4255957&postcount=355) В игре на максимальный настройках графики FPS варьируется 68-105.
Views: 219 Angelo0chek
FlatOut Ultimate Crnage
 
02:23
Views: 106 Angelo0chek
Ускоряем интернет с помощью AVG LinkScanner
 
03:05
Заметил, что после установки AVG LinkScanner у меня поднялась скорость Upload. Кто подскажет , как это работает, и можно ли так проделать без этой программы?
Views: 282 Angelo0chek
statly.ru/red
 
00:13
Интересно, а до 9 секунды реально дойти?:)))
Views: 1017 Angelo0chek
Far Cry 3 test Mirillis Action
 
28:13
Format : AVI Format/Info : Audio Video Interleave File size : 659 MiB Duration : 28mn 12s Overall bit rate : 3 264 Kbps Writing application : VirtualDubMod 1.5.10.3 (build 2550/release) Writing library : VirtualDubMod build 2550/release Video ID : 0 Format : x264 Codec ID : x264 Duration : 28mn 12s Bit rate : 2 933 Kbps Width : 1 360 pixels Height : 768 pixels Display aspect ratio : 16:9 Frame rate : 30.000 fps Bits/(Pixel*Frame) : 0.094 Stream size : 592 MiB (90%) Audio ID : 1 Format : AC-3 Format/Info : Audio Coding 3 Mode extension : CM (complete main) Format settings, Endianness : Big Codec ID : 2000 Duration : 28mn 12s Bit rate mode : Constant Bit rate : 320 Kbps Channel(s) : 2 channels Channel positions : Front: L R Sampling rate : 48.0 KHz Bit depth : 16 bits Compression mode : Lossy Stream size : 64.6 MiB (10%) Alignment : Aligned on interleaves Interleave, duration : 33 ms (1.00 video frame) Interleave, preload duration : 512 ms
Views: 100 Angelo0chek
ExMachina 201305-18 00-07-54-58!
 
00:24
Format : AVI Format/Info : Audio Video Interleave File size : 12.9 MiB Duration : 23s 133ms Overall bit rate : 4 689 Kbps Writing application : VirtualDubMod 1.5.10.3 (build 2550/release) Writing library : VirtualDubMod build 2550/release Video ID : 0 Format : x264 Codec ID : x264 Duration : 23s 133ms Bit rate : 4 353 Kbps Width : 1 920 pixels Height : 1 080 pixels Display aspect ratio : 16:9 Frame rate : 30.000 fps Bits/(Pixel*Frame) : 0.070 Stream size : 12.0 MiB (93%) Audio ID : 1 Format : AC-3 Format/Info : Audio Coding 3 Mode extension : CM (complete main) Format settings, Endianness : Big Codec ID : 2000 Duration : 23s 104ms Bit rate mode : Constant Bit rate : 320 Kbps Channel(s) : 2 channels Channel positions : Front: L R Sampling rate : 48.0 KHz Bit depth : 16 bits Compression mode : Lossy Stream size : 903 KiB (7%) Alignment : Aligned on interleaves Interleave, duration : 34 ms (1.02 video frame) Interleave, preload duration : 512 ms
Views: 455 Angelo0chek
GTA4 мясо
 
04:56
Views: 127 Angelo0chek
MVI 4468
 
00:48
Views: 108 Angelo0chek
FlatOut 2 Cheater
 
00:22
Views: 134 Angelo0chek
FlatOut2.avi
 
02:42
Веселая игруха:)
Views: 164 Angelo0chek
Светодиодная лампа Energenie E27 8W 4000K
 
01:47
Добавил конденсатор на выход и вот что получилось. Коэф. пульсации около 6% и частота пульсации 100Гц. Коэф. мощности около 0.9. Фактическая мощность - 9Вт (на коробке написано 8Вт). Потребляемый ток - 43мА.
Views: 17 Angelo0chek
MVI 3815
 
00:14
Views: 141 Angelo0chek